HPK

Bakwaaspan - Bade Chote Ft. Yo Yo Honey Singh [9XM] - Multi-Links

Bakwaaspan - Bade Chote Ft. Yo Yo Honey Singh [9XM] - Multi-Links 6
Bakwaaspan - Bade Chote Ft. Yo Yo Honey Singh [9XM] - Multi-Link

Media Info


General
Complete name : Bakwaaspan [No Logo] Bade Chote Ft. Yo Yo Honey Singh [9XM] (Lovepreet1) DUS.avi
Format : AVI
Format/Info : Audio Video Interleave
File size : 79.4 MiB
Duration : 2mn 16s
Overall bit rate : 4 870 Kbps

Video
ID : 0
Format : MPEG-4 Visual
Format profile : Simple@L1
Format settings, BVOP : No
Format settings, QPel : No
Format settings, GMC : No warppoints
Format settings, Matrix : Default (H.263)
Codec ID : MP4V
Codec ID/Info : Apple QuickTime MPEG-4 native
Duration : 2mn 16s
Bit rate : 4 730 Kbps
Width : 1 280 pixels
Height : 720 pixels
Display aspect ratio : 16:9
Frame rate : 25.000 fps
Color space : YUV
Chroma subsampling : 4:2:0
Bit depth : 8 bits
Scan type : Progressive
Compression mode : Lossy
Bits/(Pixel*Frame) : 0.205
Stream size : 77.1 MiB (97%)
Writing library : Lavc51.58.0

Audio
ID : 1
Format : AAC
Format/Info : Advanced Audio Codec
Format profile : LC
Codec ID : FF
Duration : 2mn 16s
Bit rate : 126 Kbps
Channel(s) : 2 channels
Channel positions : Front: L R
Sampling rate : 44.1 KHz
Compression mode : Lossy
Stream size : 2.05 MiB (3%)
Alignment : Split accross interleaves
Interleave, duration : 23 ms (0.58 video frame)
Interleave, preload duration : 540 ms

Screenshots

Click To Enlarge

Bakwaaspan - Bade Chote Ft. Yo Yo Honey Singh [9XM] - Multi-Links

Bakwaaspan - Bade Chote Ft. Yo Yo Honey Singh [9XM] - Multi-Links

Bakwaaspan - Bade Chote Ft. Yo Yo Honey Singh [9XM] - Multi-Links

Bakwaaspan - Bade Chote Ft. Yo Yo Honey Singh [9XM] - Multi-Links

Bakwaaspan - Bade Chote Ft. Yo Yo Honey Singh [9XM] - Multi-Links

Download Multi-Links

#SONGFORMAT-SIZEDOWNLOAD
1Bakwaaspan - Bade Chote Ft. Yo Yo Honey SinghAVI-720p-79MBDownload Now
Bagikan ke Facebook

Artikel Terkait