Priyanka Chopra - I Can t Make You Love Me - 1080p - WEBHD

Unknown
0

Priyanka Chopra - I Can t Make You Love Me - 1080p - WEBHD
Priyanka Chopra - I Can t Make You Love Me - 1080p - WEBHD

Media Info


General Info

Format : MP4
File size : 112 MiB
Duration : 3mn 51s

Video

Width : 1920 pixels
Height : 1080 pixels
Display aspect ratio : 16:9
Frame rate : 23 fps
Resolution : 24 bits
Colorimetry : 4:2:0
Scan type : Progressive
Stream size : 109 MiB (97%)

Audio

Format : AAC
Format profile : LC
Bit rate mode : Constant
Bit rate : 126 Kbps
Channel(s) : 2 channels
Channel positions : L R
Sampling rate : 44.1 KHz
Resolution : 16 bits
Stream size : 3.47 MiB (3%)

Screenshots

Click To Enlarge
General Info  Format : MP4 File size : 112 MiB Duration : 3mn 51s   Video   Width : 1920 pixels Height : 1080 pixels Display aspect ratio : 16:9 Frame rate : 23 fps Resolution : 24 bits Colorimetry : 4:2:0 Scan type : Progressive Stream size : 109 MiB (97%)   Audio  Format : AAC Format profile : LC Bit rate mode : Constant Bit rate : 126 Kbps Channel(s) : 2 channels Channel positions : L R Sampling rate : 44.1 KHz Resolution : 16 bits Stream size : 3.47 MiB (3%)

General Info  Format : MP4 File size : 112 MiB Duration : 3mn 51s   Video   Width : 1920 pixels Height : 1080 pixels Display aspect ratio : 16:9 Frame rate : 23 fps Resolution : 24 bits Colorimetry : 4:2:0 Scan type : Progressive Stream size : 109 MiB (97%)   Audio  Format : AAC Format profile : LC Bit rate mode : Constant Bit rate : 126 Kbps Channel(s) : 2 channels Channel positions : L R Sampling rate : 44.1 KHz Resolution : 16 bits Stream size : 3.47 MiB (3%)

General Info  Format : MP4 File size : 112 MiB Duration : 3mn 51s   Video   Width : 1920 pixels Height : 1080 pixels Display aspect ratio : 16:9 Frame rate : 23 fps Resolution : 24 bits Colorimetry : 4:2:0 Scan type : Progressive Stream size : 109 MiB (97%)   Audio  Format : AAC Format profile : LC Bit rate mode : Constant Bit rate : 126 Kbps Channel(s) : 2 channels Channel positions : L R Sampling rate : 44.1 KHz Resolution : 16 bits Stream size : 3.47 MiB (3%)

General Info  Format : MP4 File size : 112 MiB Duration : 3mn 51s   Video   Width : 1920 pixels Height : 1080 pixels Display aspect ratio : 16:9 Frame rate : 23 fps Resolution : 24 bits Colorimetry : 4:2:0 Scan type : Progressive Stream size : 109 MiB (97%)   Audio  Format : AAC Format profile : LC Bit rate mode : Constant Bit rate : 126 Kbps Channel(s) : 2 channels Channel positions : L R Sampling rate : 44.1 KHz Resolution : 16 bits Stream size : 3.47 MiB (3%)

General Info  Format : MP4 File size : 112 MiB Duration : 3mn 51s   Video   Width : 1920 pixels Height : 1080 pixels Display aspect ratio : 16:9 Frame rate : 23 fps Resolution : 24 bits Colorimetry : 4:2:0 Scan type : Progressive Stream size : 109 MiB (97%)   Audio  Format : AAC Format profile : LC Bit rate mode : Constant Bit rate : 126 Kbps Channel(s) : 2 channels Channel positions : L R Sampling rate : 44.1 KHz Resolution : 16 bits Stream size : 3.47 MiB (3%)

General Info  Format : MP4 File size : 112 MiB Duration : 3mn 51s   Video   Width : 1920 pixels Height : 1080 pixels Display aspect ratio : 16:9 Frame rate : 23 fps Resolution : 24 bits Colorimetry : 4:2:0 Scan type : Progressive Stream size : 109 MiB (97%)   Audio  Format : AAC Format profile : LC Bit rate mode : Constant Bit rate : 126 Kbps Channel(s) : 2 channels Channel positions : L R Sampling rate : 44.1 KHz Resolution : 16 bits Stream size : 3.47 MiB (3%)

General Info  Format : MP4 File size : 112 MiB Duration : 3mn 51s   Video   Width : 1920 pixels Height : 1080 pixels Display aspect ratio : 16:9 Frame rate : 23 fps Resolution : 24 bits Colorimetry : 4:2:0 Scan type : Progressive Stream size : 109 MiB (97%)   Audio  Format : AAC Format profile : LC Bit rate mode : Constant Bit rate : 126 Kbps Channel(s) : 2 channels Channel positions : L R Sampling rate : 44.1 KHz Resolution : 16 bits Stream size : 3.47 MiB (3%)

General Info  Format : MP4 File size : 112 MiB Duration : 3mn 51s   Video   Width : 1920 pixels Height : 1080 pixels Display aspect ratio : 16:9 Frame rate : 23 fps Resolution : 24 bits Colorimetry : 4:2:0 Scan type : Progressive Stream size : 109 MiB (97%)   Audio  Format : AAC Format profile : LC Bit rate mode : Constant Bit rate : 126 Kbps Channel(s) : 2 channels Channel positions : L R Sampling rate : 44.1 KHz Resolution : 16 bits Stream size : 3.47 MiB (3%)

General Info  Format : MP4 File size : 112 MiB Duration : 3mn 51s   Video   Width : 1920 pixels Height : 1080 pixels Display aspect ratio : 16:9 Frame rate : 23 fps Resolution : 24 bits Colorimetry : 4:2:0 Scan type : Progressive Stream size : 109 MiB (97%)   Audio  Format : AAC Format profile : LC Bit rate mode : Constant Bit rate : 126 Kbps Channel(s) : 2 channels Channel positions : L R Sampling rate : 44.1 KHz Resolution : 16 bits Stream size : 3.47 MiB (3%)

General Info  Format : MP4 File size : 112 MiB Duration : 3mn 51s   Video   Width : 1920 pixels Height : 1080 pixels Display aspect ratio : 16:9 Frame rate : 23 fps Resolution : 24 bits Colorimetry : 4:2:0 Scan type : Progressive Stream size : 109 MiB (97%)   Audio  Format : AAC Format profile : LC Bit rate mode : Constant Bit rate : 126 Kbps Channel(s) : 2 channels Channel positions : L R Sampling rate : 44.1 KHz Resolution : 16 bits Stream size : 3.47 MiB (3%)

General Info  Format : MP4 File size : 112 MiB Duration : 3mn 51s   Video   Width : 1920 pixels Height : 1080 pixels Display aspect ratio : 16:9 Frame rate : 23 fps Resolution : 24 bits Colorimetry : 4:2:0 Scan type : Progressive Stream size : 109 MiB (97%)   Audio  Format : AAC Format profile : LC Bit rate mode : Constant Bit rate : 126 Kbps Channel(s) : 2 channels Channel positions : L R Sampling rate : 44.1 KHz Resolution : 16 bits Stream size : 3.47 MiB (3%)

General Info  Format : MP4 File size : 112 MiB Duration : 3mn 51s   Video   Width : 1920 pixels Height : 1080 pixels Display aspect ratio : 16:9 Frame rate : 23 fps Resolution : 24 bits Colorimetry : 4:2:0 Scan type : Progressive Stream size : 109 MiB (97%)   Audio  Format : AAC Format profile : LC Bit rate mode : Constant Bit rate : 126 Kbps Channel(s) : 2 channels Channel positions : L R Sampling rate : 44.1 KHz Resolution : 16 bits Stream size : 3.47 MiB (3%)




Download Multi-Links

#SONGFORMAT-SIZEDOWNLOAD
1Priyanka Chopra - I Can t Make You Love MeMP4-1080p-112MBDownload Now

Post a Comment

0Comments
Post a Comment (0)

#buttons=(Accept !) #days=(20)

Our website uses cookies to enhance your experience. Learn More
Accept !